#TITLE:Tant Mieux;
#SUBTITLE:Romancing Saga;
#ARTIST:Sixto Sounds;
#TITLETRANSLIT:;
#SUBTITLETRANSLIT:;
#ARTISTTRANSLIT:;
#CREDIT:;
#BANNER:;
#BACKGROUND:;
#LYRICSPATH:;
#CDTITLE:;
#MUSIC:12.10.Sixto Sounds - Tant Mieux.mp3;
#OFFSET:-0.360;
#SAMPLESTART:100.000;
#SAMPLELENGTH:12.000;
#SELECTABLE:YES;
#BPMS:0.000=165.000;
#STOPS:;
#BGCHANGES:0.000=Saga=1.000=0=0=1,
99999=-nosongbg-=1.000=0=0=0 // don't automatically add -songbackground-
;
// cache tags:
#FIRSTBEAT:0.000;
#LASTBEAT:760.500;
#SONGFILENAME:Songs/My Creations/12.10.Sixto Sounds - Tant Mieux/12.10.Sixto Sounds - Tant Mieux.sm;
#HASMUSIC:1;
#HASBANNER:0;
#MUSICLENGTH:276.767;
// end cache tags

//---------------dance-single - Copied from----------------
#NOTES:
     dance-single:
     Copied from:
     Challenge:
     1:
     0.803,1.000,1.000,0.705,0.291,981.000,379.000,195.000,108.000,5.000:  // measure 1
0200
0010
0001
0010
,  // measure 2
0000
0001
0310
0001
,  // measure 3
0020
0100
1000
0100
,  // measure 4
0000
0031
0010
0001
,  // measure 5
0120
0000
0000
0000
2100
0000
0030
3000
,  // measure 6
0021
0000
0000
0000
2100
0030
0000
3000
,  // measure 7
0012
0100
0010
0003
0000
0000
0000
1010
,  // measure 8
0200
0000
0010
0000
0001
0000
0010
0300
,  // measure 9
1100
0000
0010
0000
0010
0100
0000
0000
,  // measure 10
0001
0000
0100
1000
0010
0100
0000
0000
,  // measure 11
0101
1000
1100
0010
0001
1000
0000
0000
,  // measure 12
1100
0101
0110
0110
1100
0011
0000
0000
,  // measure 13
M001
010M
10M0
1M00
M010
01M0
0000
0000
,  // measure 14
101M
0M10
00M1
1M10
010M
M100
0000
0000
,  // measure 15
M101
0M11
1M10
M110
10M1
M101
0000
0000
,  // measure 16
1000
0110
0100
1010
0101
0010
0101
0010
,  // measure 17
0202
0303
0011
0000
0022
0000
0033
0101
,  // measure 18
0000
2200
3300
0000
0011
0110
1000
0101
,  // measure 19
0022
0033
0100
0100
0220
0000
0330
0101
,  // measure 20
0000
2020
3030
0000
0022
0000
0033
0000
,  // measure 21
1100
0000
0010
0010
0202
0000
0303
0011
,  // measure 22
0000
1100
0000
0000
0101
0010
1000
0001
,  // measure 23
0011
0000
0101
0000
0022
0000
0033
1010
,  // measure 24
0000
1001
0000
0100
0220
0000
0000
0330
,  // measure 25
0202
0303
0100
0100
2200
0000
3300
0011
,  // measure 26
0000
0220
0000
0330
0010
1001
0100
1010
,  // measure 27
0101
0000
0020
0030
2020
0000
3030
0011
,  // measure 28
0000
1100
0000
1010
0022
0000
0033
0000
,  // measure 29
0101
0001
1100
0000
2020
3030
0101
0101
,  // measure 30
0000
1100
0000
0000
0001
0010
1010
0100
,  // measure 31
0101
0000
0200
0300
2002
0000
3003
0101
,  // measure 32
0000
0022
0003
0030
0010
0100
0100
0000
,  // measure 33
1100
1010
0101
0110
,  // measure 34
1010
0000
0011
0000
0110
0000
1001
0110
,  // measure 35
1001
1010
0101
1100
,  // measure 36
0101
0000
0110
0000
1100
0000
1010
1100
,  // measure 37
0011
0101
0011
1010
,  // measure 38
0110
1010
0110
0101
,  // measure 39
1010
0101
1010
0011
,  // measure 40
1010
0000
1001
0000
0010
0000
0110
0110
,  // measure 41
1MM1
MM11
M11M
M1M1
,  // measure 42
M1M1
1MM1
MM1M
11MM
,  // measure 43
M1M1
1MMM
11MM
M11M
,  // measure 44
M1M1
0000
1M1M
0000
MMM1
0000
MM1M
0110
,  // measure 45
1001
1001
1000
1001
0100
0110
0110
0110
,  // measure 46
0101
1010
0101
0110
,  // measure 47
1000
0100
0010
0001
0010
0100
1000
0100
0010
0001
0010
0100
,  // measure 48
1000
0100
0010
0001
0010
0101
1000
0100
0010
0001
0010
0100
,  // measure 49
1001
1001
1100
1100
0011
0011
1010
1010
,  // measure 50
0011
0011
0110
0110
0101
0101
1100
1100
,  // measure 51
0011
0011
0101
0101
0011
0011
1100
1100
,  // measure 52
0101
0101
0110
0110
0011
0011
0110
0110
,  // measure 53
1100
1100
0101
0101
1001
1001
0110
0110
,  // measure 54
1010
1010
0101
0101
1001
1001
1010
1010
,  // measure 55
0011
0011
1010
1010
1001
1001
0110
1001
,  // measure 56
0110
1001
0110
1001
0110
1001
0110
1001
,  // measure 57
0202
0000
0300
0003
0022
0000
0030
0003
,  // measure 58
0202
0000
0003
0300
2200
0000
0300
3000
,  // measure 59
2002
0000
3000
0003
0220
0000
0030
0300
,  // measure 60
0202
0000
0300
0003
2200
0000
0300
3000
,  // measure 61
1001
0000
1010
0101
0020
0030
0100
0002
,  // measure 62
0003
0200
0000
0300
1000
0000
0011
0000
,  // measure 63
1100
0000
0000
0010
0200
0300
0001
0020
,  // measure 64
0030
2000
0000
3000
1010
0000
1001
0000
,  // measure 65
1100
0000
0000
0010
0100
0000
0001
0000
,  // measure 66
0100
0000
0000
0010
2000
3000
0002
0003
,  // measure 67
0101
0000
0000
0010
0100
0000
2000
3000
,  // measure 68
0002
0000
0000
0000
0000
0000
0000
0000
0000
0003
0000
0000
1000
0000
0100
0000
0010
0000
0001
0000
0000
0000
0000
0000
,  // measure 69
1101
0000
0110
0000
0011
0000
0110
0202
,  // measure 70
0000
0303
0011
2002
0000
3003
1010
2200
,  // measure 71
0000
0000
0000
3300
0000
0200
0300
0000
,  // measure 72
1001
0101
1001
0101
0000
0001
0100
0020
,  // measure 73
0000
0030
0000
0000
0010
1000
0002
0000
,  // measure 74
0000
0003
0000
0000
0010
1000
0000
0000
,  // measure 75
1000
0100
0010
0001
0001
0001
0001
0001
0000
0000
1000
1000
,  // measure 76
1000
0100
0010
0001
0001
0001
0001
0001
0000
0000
1000
1000
,  // measure 77
1000
0000
0100
0000
0010
0000
0001
0000
0001
0000
0001
0000
0001
0000
0001
0000
0000
0000
1000
0000
0000
1010
0000
0000
,  // measure 78
0002
0003
0020
0030
2000
3000
0000
0000
,  // measure 79
0020
0100
0031
0000
1100
0000
0101
1010
,  // measure 80
0000
2200
0000
3300
0011
0000
1100
0000
,  // measure 81
0101
1010
0011
0000
1010
0000
0011
0010
,  // measure 82
0000
0000
0000
0202
0000
0000
0000
0000
0000
0303
0000
0000
1000
0000
0100
0000
0010
0000
0001
0000
0010
0000
0100
0000
,  // measure 83
2000
0000
0000
0002
0000
0000
0000
0000
3000
0000
0000
0000
0003
0000
0000
0000
0000
0000
0000
0000
0000
0101
0000
0000
,  // measure 84
2200
0000
0000
3300
0101
0100
0110
0000
,  // measure 85
1010
0001
0100
0000
0001
0000
1100
1001
,  // measure 86
0000
2020
0000
3030
0000
1100
1001
0000
,  // measure 87
2002
0000
0000
0003
0000
3000
0001
0010
,  // measure 88
2000
0010
0001
0010
,  // measure 89
0200
0000
3010
0000
2001
0300
3000
0000
,  // measure 90
1010
0001
0010
0000
2020
0000
0030
3000
,  // measure 91
1MM1
1001
M11M
0000
1MM1
1001
M11M
0000
,  // measure 92
M1M1
1001
0110
2002
0000
0000
0000
3003
,  // measure 93
0110
0110
0110
0000
1001
1001
1001
0000
,  // measure 94
0110
0110
0110
0000
1001
1001
1001
2002
,  // measure 95
0000
3003
0220
0330
2020
3030
0202
0000
,  // measure 96
0000
0000
0000
0000
0303
0000
0000
0010
,  // measure 97
0001
0000
0100
0000
1000
0000
0010
0100
,  // measure 98
0001
0000
0010
0000
1000
0100
0010
0000
,  // measure 99
0100
0000
0001
0000
0100
0000
0010
0100
,  // measure 100
0001
0000
0000
0010
0000
0000
0100
0000
0000
0100
0000
0000
0001
0000
0000
0001
0010
0000
0100
0000
1000
0000
1000
0000
,  // measure 101
1010
0000
1001
0000
0101
0000
1001
1001
,  // measure 102
1000
0010
0100
0001
,  // measure 103
2020
0000
0000
3030
0000
0000
1001
0000
0000
2020
0000
0000
3030
0000
0000
0000
0000
0000
1000
0000
0000
0100
0010
0000
,  // measure 104
0001
0000
1100
0000
0001
0000
1100
0110
,  // measure 105
2001
3000
2010
3000
,  // measure 106
0210
0300
1002
0003
,  // measure 107
1000
0100
0010
1000
0100
0010
1000
0100
0010
1000
0100
0010
,  // measure 108
2002
0000
3003
1001
1001
1001
0100
1000
,  // measure 109
1000
0000
0100
0000
0010
0000
1000
0000
0100
0000
0010
0000
1000
0000
0000
0010
0000
0000
0100
0000
0000
0010
0000
0000
,  // measure 110
0002
0000
0000
0000
0000
0000
0000
0000
0000
0003
0000
0000
1000
0000
0100
0000
0010
0000
1000
0000
0100
0000
0010
0000
,  // measure 111
1000
0100
0010
2000
3000
0000
1000
0100
0010
2000
0000
3000
,  // measure 112
1000
0100
0010
2000
3000
0000
1000
0100
0010
2000
0000
3000
,  // measure 113
0001
0000
0010
0000
0001
0000
0100
0100
,  // measure 114
0000
0010
0100
0000
1001
0000
0010
0001
,  // measure 115
1001
0100
0010
1000
0100
0010
1000
0100
0010
2000
0000
3000
,  // measure 116
0001
0010
0100
0001
0010
0100
0001
0010
0100
2000
0000
3000
,  // measure 117
2020
0000
3030
0220
0000
0330
0022
0000
,  // measure 118
0033
0000
0000
0101
0000
0000
0000
0000
0000
2020
0000
0000
3030
0000
0000
0110
0000
0000
1000
0000
0100
0000
0010
0000
,  // measure 119
1000
0100
0010
1000
0100
0010
1000
0100
0020
0000
0000
0030
,  // measure 120
0001
0010
0100
0001
0010
0100
0001
0010
0200
0000
0000
0300
,  // measure 121
0001
0010
0100
1000
0100
0010
0001
0010
0100
1000
0100
0010
,  // measure 122
0001
0002
0000
0100
0000
0000
1000
0000
0000
0100
0000
0003
,  // measure 123
2002
0000
0000
0000
0000
0000
0000
3003
,  // measure 124
0110
1001
0101
1010
,  // measure 125
1000
0100
0010
1000
0100
0010
1000
0100
0010
1000
0100
0010
,  // measure 126
1000
0001
1000
0001
,  // measure 127
0001
0010
0100
0001
0010
0100
0001
0010
0100
0001
0010
0100
,  // measure 128
0001
0100
0010
0001
,  // measure 129
1000
0100
0010
1000
0100
0010
1000
0100
0010
1000
0100
0010
,  // measure 130
1010
1100
1010
0000
,  // measure 131
1000
0100
0010
0001
0000
0000
100M
0000
0000
M101
0000
0000
,  // measure 132
0M10
11M0
101M
M101
,  // measure 133
0M10
010M
00M1
1M00
,  // measure 134
010M
00M1
M100
01M0
,  // measure 135
0001
0100
0010
0001
0100
0010
0001
0100
0010
0001
0100
0010
,  // measure 136
0001
0100
0010
0001
0100
0010
0001
0100
0010
0001
0100
0010
,  // measure 137
1000
0101
1100
0010
,  // measure 138
1001
0000
0000
0100
0000
0000
1010
0100
0010
1001
0001
0001
,  // measure 139
1001
1000
0000
0000
M010
M010
0000
0000
,  // measure 140
010M
010M
0000
0000
M001
M001
0000
0000
,  // measure 141
1M00
1M00
0000
0000
M010
M010
0000
0000
,  // measure 142
00M1
00M1
0000
0000
M100
M100
0000
0000
,  // measure 143
10M0
10M0
0000
0000
10M0
M010
0000
0000
,  // measure 144
010M
0M01
0000
0000
1M00
M100
0000
0000
,  // measure 145
M001
100M
0000
0000
010M
0M01
0000
0000
,  // measure 146
1M00
M100
0000
0000
M010
10M0
0000
0000
,  // measure 147
1001
0100
1010
0001
,  // measure 148
0110
0001
1100
0001
,  // measure 149
0110
1000
0101
0010
,  // measure 150
1100
0010
0101
0110
,  // measure 151
0010
0100
0101
0010
,  // measure 152
1010
0001
1100
0110
,  // measure 153
0010
0101
0110
1100
,  // measure 154
1010
0101
0101
0110
,  // measure 155
2000
0000
0000
0000
3200
1000
1000
1000
,  // measure 156
0302
0100
0100
0100
0023
0001
0001
0001
,  // measure 157
2030
0010
0010
0010
3200
1000
1000
1000
,  // measure 158
0320
0100
0100
0130
2010
0000
0000
3000
,  // measure 159
1020
0000
0000
0030
0012
0000
0000
0003
,  // measure 160
0201
0000
0000
0300
2100
0000
0000
3000
,  // measure 161
1020
0000
0000
0030
0012
0000
0000
0003
,  // measure 162
2020
0000
0000
0030
0200
0000
3000
0300
,  // measure 163
1000
1000
0100
0100
1000
1000
0010
0010
,  // measure 164
0100
0100
0001
0001
0010
0010
1000
1000
,  // measure 165
0100
0100
0001
0001
0010
0010
0001
0001
,  // measure 166
1000
1000
0100
0100
1000
1000
0001
0001
,  // measure 167
1000
0100
1000
0001
,  // measure 168
0020
0030
0200
0300
0022
0033
0220
0330
,  // measure 169
1000
1000
0010
0010
0100
0100
0001
0001
,  // measure 170
1000
0100
0010
1000
0100
0010
1000
0100
0010
1000
0100
0010
,  // measure 171
2000
0000
0001
0010
0001
0000
0000
3001
,  // measure 172
0002
0000
0003
0010
0020
0030
1000
2000
,  // measure 173
0000
0000
3000
0202
0000
0000
0303
2020
,  // measure 174
0000
0000
0000
0000
0000
0000
3030
0000
0000
0001
0000
0000
1000
0000
0100
0000
0010
0000
0100
0000
1000
0000
0000
0000
,  // measure 175
2020
0000
0000
3030
0000
0000
0101
0202
,  // measure 176
0000
0000
0000
0000
0303
0000
1010
2020
,  // measure 177
0000
0000
0000
3030
0000
0000
0000
0000
,  // measure 178
0100
0010
0001
1000
0000
0010
0100
0200
,  // measure 179
0000
0000
0300
0000
0010
0100
0000
0002
,  // measure 180
0000
0003
0000
0000
1000
0010
0000
0200
,  // measure 181
0000
0300
0000
0000
1000
0101
0000
0202
,  // measure 182
0000
0303
0000
0000
1000
0110
0000
0220
,  // measure 183
0000
0000
0330
0000
1010
0101
0000
2020
,  // measure 184
0000
3030
0000
0000
1010
0101
0000
0002
,  // measure 185
0010
0100
1000
0100
0010
0100
1003
0000
,  // measure 186
0001
0100
0010
0100
0011
0100
0010
0100
,  // measure 187
1001
1001
1001
0000
2020
3030
1010
1010
,  // measure 188
0000
0202
0000
0303
0010
0010
0000
2002
,  // measure 189
0000
0000
0000
3003
0000
0000
0000
0000
;

//---------------dance-single - Copied from Copied f----------------
#NOTES:
     dance-single:
     Copied from Copied f:
     Hard:
     1:
     0.604,0.882,0.755,0.307,0.123,876.000,209.000,85.000,68.000,2.000:
0200
0010
0001
0000
,
0000
0010
0001
0300
,
0020
0100
1000
0000
,
0000
0100
1000
0030
,
0020
0100
1000
0030
,
0002
0100
1100
0003
,
0002
0000
1000
0000
1100
0000
0003
1000
,
0200
0010
0001
0300
,
0100
0000
0100
0000
0010
0100
0000
0000
,
0010
0000
0100
1000
0010
0100
0000
0000
,
0100
1000
0100
0010
0001
1000
0000
0000
,
1000
0010
0100
0010
1000
0001
0000
0000
,
0010
010M
0010
1M00
0001
01M0
0000
0000
,
1000
0M10
0001
1M00
0010
M100
0000
0000
,
M001
0M01
1000
M010
0101
00M1
0000
0000
,
1000
0100
0100
1010
1100
0010
0100
0010
,
0101
0000
0001
0000
0020
0000
0030
0001
,
0000
0200
0300
0000
0110
0110
0100
0110
,
0011
0000
0100
0100
0220
0330
0000
0100
,
0000
0220
0330
0000
0020
0000
0030
0000
,
0110
0000
0100
0100
0200
0000
0300
1001
,
0000
0110
0000
0000
0110
0010
0100
0001
,
1001
0000
1000
0000
0220
0000
0330
0010
,
0000
0110
0000
0100
0220
0000
0000
0330
,
2002
3003
0100
0100
0200
0000
0300
0010
,
0000
0220
0000
0330
0010
0110
0100
0110
,
0101
0000
0001
0000
0020
0030
0000
1000
,
0000
0100
0000
0010
0020
0000
0030
0000
,
0110
0110
0100
0000
0020
0030
0101
0001
,
0000
0010
0000
0000
0001
0010
0010
0100
,
0100
0000
0100
0000
2020
0000
3030
0100
,
0000
0020
0030
0000
0100
0100
0100
0000
,
1100
0010
0100
0010
,
1000
0000
0001
0000
0010
0000
0001
0100
,
1000
0010
0001
0100
,
0001
0000
0010
0000
0100
0000
0010
0100
,
0010
0101
0001
1010
,
0100
1010
0010
0101
,
1000
0101
0010
0011
,
1000
0000
1001
0000
0010
0000
0100
0110
,
1001
MM10
M01M
0101
,
M0M1
1001
0M1M
1100
,
M0M1
1000
01MM
0110
,
M1M0
0000
1010
0000
M0M1
0000
0010
0010
,
1001
1001
1000
0001
0110
0110
0010
0100
,
0101
1010
0001
0100
,
1000
0100
0010
0001
0000
0000
1000
0100
0010
0001
0000
0000
,
1000
0100
0010
0001
0000
0000
1000
0100
0010
0001
0000
0000
,
1001
1001
0100
1000
0011
0011
0010
0010
,
0011
0011
0100
0100
0101
0101
1000
1000
,
0011
0011
0100
0100
0011
0011
1000
1000
,
0101
0101
0010
0010
0011
0011
0010
0010
,
1100
1100
0001
0001
1000
1000
0110
0110
,
0010
0010
0101
0101
0001
0001
1010
1010
,
0001
0001
1010
1010
0001
0001
0110
1001
,
0010
0100
0110
1001
0010
0100
0110
1001
,
1002
0000
0000
0003
2002
0000
0000
3003
,
0201
0000
0000
0300
2020
0000
0000
3030
,
1002
0000
0000
0003
0220
0000
0030
0300
,
0102
0000
0000
0003
2200
0000
3300
0000
,
0001
0000
0010
0100
0010
0000
0100
0002
,
0003
0200
0300
0000
1000
0000
1001
0000
,
1001
0000
0000
0010
0100
0000
0100
0020
,
0030
2000
3000
0000
0010
0000
1001
0000
,
0100
0000
0000
0010
0100
0000
0010
0000
,
0100
0000
0000
0010
1000
0000
0001
0000
,
0001
0000
0000
0010
0100
0000
1000
0000
,
0002
0000
0000
0003
0000
0000
1000
0100
0010
0001
0000
0000
,
0001
0000
0010
0000
0010
0000
0100
0200
,
0000
0300
0001
1001
0000
0000
1010
2000
,
0000
0000
0000
3000
0000
0100
0000
0000
,
0001
0100
0001
0100
0000
0001
0100
0200
,
0000
0300
0000
0000
1000
1000
0002
0000
,
0000
0003
0000
0000
1000
1000
0000
0000
,
1000
1000
1000
0001
0000
0000
0001
0000
0000
0000
0000
0000
,
1000
1000
1000
0001
0000
0000
0001
0000
0000
0000
0000
0000
,
1000
0000
1000
0000
1000
0000
0001
0000
0000
0000
0000
0000
0001
0000
0000
0000
0000
0000
1000
0000
0000
0010
0000
0000
,
0001
0010
0100
0000
,
0110
0110
1001
0000
1001
0000
1010
1010
,
0000
2200
0000
3300
0010
0000
0100
0000
,
0101
1010
0010
0000
0010
0000
0011
0110
,
0000
0000
0000
0202
0000
0000
0000
0000
0000
0303
0000
0000
1000
0000
0100
0000
0010
0000
0001
0000
0000
0000
0000
0000
,
1000
0001
0000
0000
0000
0000
0000
0100
,
0200
0000
0000
0300
0101
0101
0010
0000
,
0010
0100
0100
0000
0010
0000
0110
1001
,
0000
1001
0000
0000
0000
0110
1001
0000
,
2000
0000
0000
0000
0000
3000
0001
0010
,
2000
0000
0000
0000
0000
3000
0001
0010
,
2000
0000
0000
0000
0000
3000
0001
0010
,
0010
0100
0010
0000
1010
0000
1010
0000
,
0M01
011M
10M0
M110
,
M100
0000
0110
1001
0000
1001
0000
1001
,
0110
0101
1010
0101
,
1010
0000
0101
0000
1001
0110
1001
1001
,
0000
0110
0101
0102
,
0000
0000
0000
0000
0003
0000
0000
0010
,
0001
0000
0100
0000
0010
0000
0010
0100
,
0001
0000
0010
0000
0001
0100
0010
0000
,
0100
0000
1000
0000
0100
0000
0010
0100
,
1000
0010
0100
0100
0001
0001
0100
0100
,
1000
0000
0001
0000
0010
0000
0101
0011
,
0100
0010
0100
1000
,
1010
0000
1100
1010
0000
0000
1000
0100
,
1000
0000
1100
0000
0010
0000
0100
0010
,
1001
1001
0000
0000
1010
1010
0000
0000
,
0110
0110
0000
0000
1001
1001
0000
0000
,
1000
0000
1000
0000
1000
0000
0001
0000
0001
0000
0001
0000
1000
0000
1000
0000
1000
0000
0001
0000
0000
0110
0000
0000
,
2002
0000
3003
0001
0001
0001
0100
0100
,
1000
0000
0001
0000
1000
0001
0100
0010
,
0002
0000
0000
0000
0000
0000
0000
0000
0000
0003
0000
0000
1000
0000
0100
0000
0010
0000
0000
0000
0000
0000
0000
0000
,
1000
0100
0010
0001
0000
0000
1000
0100
0010
0001
0000
0000
,
1000
0100
0010
0001
0000
0000
1000
0100
0010
0001
0000
0000
,
0001
0000
0010
0000
1010
0000
0101
0101
,
0000
1010
1010
0000
0001
0000
0010
0100
,
1000
0100
0010
1000
0000
0000
1000
0100
0010
0000
0000
0000
,
0001
0010
0100
0001
0000
0000
0001
0010
0100
1000
0000
0000
,
1010
0000
0000
0110
0000
0000
1010
0000
,
0000
0101
0000
1010
0000
0110
0001
0000
,
1000
0000
0001
0000
1000
0020
0030
0000
,
0001
0010
0100
0001
0000
0000
0001
0010
0100
0000
0000
0000
,
0001
0010
0100
0000
0000
0000
0001
0010
0100
0000
0000
0000
,
0002
0000
0000
0000
0000
0000
0000
0000
0000
0000
0000
0000
0000
0000
0000
1000
0000
0000
0100
0000
0000
0000
0003
0000
,
0002
0000
0000
0000
0000
0000
0000
0003
,
0010
1000
0001
0010
,
1000
0100
0010
1000
0000
0000
1000
0100
0010
1000
0000
0000
,
1000
0100
0010
0001
,
0001
0010
0100
0001
0000
0000
0001
0010
0100
0001
0000
0000
,
1000
0100
0010
1000
,
1000
0100
0010
1000
0000
0000
1000
0100
0010
1000
0000
0000
,
0010
1010
1010
0000
,
1000
1000
0001
0000
000M
0000
M100
0000
,
0M10
10M0
001M
M001
,
0M10
010M
00M1
1M00
,
010M
00M1
M100
01M0
,
0001
1000
0010
0100
0001
1000
0010
0100
,
0001
1000
0010
0100
0001
1000
0010
0000
,
1010
0110
0110
0010
,
0001
0000
0000
0100
0000
0000
1000
0100
0010
1001
0000
0000
,
0001
0100
0000
0000
M100
M100
0000
0000
,
01M0
01M0
0000
0000
0M10
0M10
0000
0000
,
0M10
0M10
0000
0000
001M
001M
0000
0000
,
00M1
00M1
0000
0000
M100
M100
0000
0000
,
1M00
1M00
0000
0000
00M0
0011
0000
0000
,
000M
0011
0000
0000
1M00
1100
0000
0000
,
000M
0011
0000
0000
0M00
0110
0000
0000
,
0M00
1100
0000
0000
00M0
0011
0000
0000
,
0001
0100
0010
0001
,
0100
0001
1000
0001
,
0010
1000
0001
0010
,
1000
0010
0001
0100
,
0010
0000
0101
0110
,
0110
0011
1100
0110
,
0110
0001
0100
0100
,
0010
0001
0100
0010
,
2000
0000
0001
3000
0200
0000
1000
0300
,
0002
0000
0100
0003
0020
0000
0001
0030
,
2000
0000
0010
3000
0200
0000
1000
0300
,
0020
0000
0100
0030
2000
0000
0001
3000
,
0020
0000
1000
0030
0002
0000
0100
0003
,
0200
0000
0010
0300
2000
0000
0100
3000
,
0020
0000
0100
0030
0002
0000
0010
0003
,
0020
0000
1000
0030
0200
0000
0001
0300
,
0000
0010
0000
0001
0000
0100
0000
0010
,
0000
1000
0000
0100
0000
0001
0000
0010
,
0000
1000
0000
0100
0000
0010
0000
0100
,
0000
0001
0000
1000
0000
0100
0000
0001
,
1100
1100
1010
0011
,
0010
0010
0100
0100
0011
0011
0110
0110
,
1000
1000
1000
1000
0001
0001
0001
0001
,
1000
0100
0010
1000
0000
0000
1000
0100
0010
1000
0000
0000
,
1000
0000
0000
1000
0000
1000
0000
0001
,
0001
0000
0001
0010
0010
0000
1000
1000
,
0000
0000
0000
0101
0000
0101
0000
1010
,
0000
1010
0000
0001
1000
1000
0100
0100
,
1010
0000
1010
1010
0000
0000
0000
0101
,
0000
0101
0101
0000
0000
0000
0000
1010
,
0000
1010
1010
0000
0000
0000
0000
0000
,
0100
0100
0100
1000
0000
0010
0100
0100
,
0000
0000
0000
0000
0010
0100
0000
1001
,
0000
0000
0000
0000
0100
0010
0000
0100
,
0000
0000
0000
0000
0010
0100
0000
0200
,
0000
0300
0000
0000
1000
0100
0000
0020
,
0000
0000
0030
0000
0010
0001
0000
0020
,
0000
0030
0000
0000
1000
0100
0000
0001
,
0010
0100
1000
0010
0010
0100
0001
0000
,
0010
1000
0001
1000
0001
1000
0010
0100
,
1001
0000
1001
0000
1010
0000
1000
1010
,
0000
0002
0000
0003
0100
0010
0000
1001
;

//---------------dance-single - Copied from Copied f----------------
#NOTES:
     dance-single:
     Copied from Copied f:
     Medium:
     1:
     0.421,0.544,0.152,0.116,0.000,741.000,42.000,32.000,0.000,0.000:
0200
0000
0000
0000
,
0300
0010
0001
0000
,
0020
0000
0000
0000
,
0030
0100
1000
0000
,
0010
0100
1000
0000
,
0100
0100
1100
0000
,
0001
0010
1100
0000
,
0100
0010
1000
0000
,
0010
0001
0100
0000
,
0010
0100
0010
0000
,
0100
1000
0010
0000
,
1000
0100
0001
0000
,
0010
0100
0010
0010
0100
0100
0000
0000
,
0100
0010
0001
0100
0010
0100
0000
0000
,
0001
0001
0010
0010
0001
0001
0000
0000
,
1000
1000
1000
1000
0100
0010
0100
0010
,
0010
0000
0010
0000
0110
0000
0000
0100
,
0000
0010
0000
0000
0010
0100
0100
0010
,
0010
0000
1000
0000
1001
0000
0000
0010
,
0000
0110
0000
0000
0001
0000
0000
0000
,
0010
0000
0100
0100
0100
0000
0000
0010
,
0000
0100
0000
0000
0010
0010
0100
0010
,
0010
0000
0100
0000
1001
0000
0000
1000
,
0000
0001
0000
0010
0020
0000
0000
0030
,
0001
0000
0010
0100
1000
0000
0000
0100
,
0000
0100
0000
0000
0010
0010
0100
0010
,
0010
0000
0100
0000
0010
0000
0000
0100
,
0000
0100
0000
0010
0010
0000
0000
0000
,
0010
0100
0100
0000
1000
0000
0100
0010
,
0000
0010
0000
0000
0100
0010
0010
0100
,
0100
0000
0100
0000
0010
0000
0000
0100
,
0000
0010
0000
0000
0100
0000
0100
0100
,
0100
0010
0100
0010
,
0100
0000
0001
0000
0010
0000
0001
0100
,
1000
0010
0001
0100
,
0100
0000
0010
0000
0100
0000
0010
0100
,
0010
0100
0010
0010
,
0100
1000
0100
0100
,
0010
0100
0010
0010
,
0100
0000
1001
0000
0010
0000
0100
0010
,
0001
0010
0010
0100
,
0001
0010
1000
0100
,
0001
0010
0100
0010
,
0100
0000
1010
0000
0100
0000
0010
0010
,
1001
1001
1001
0010
,
1001
0100
1001
0100
,
1000
1000
0001
0000
1000
1000
0001
0000
,
1000
1000
0001
0000
1000
1000
0001
0000
,
0001
0001
0100
0000
0010
0000
0010
0000
,
0001
0100
0101
1000
,
1010
0001
0011
1000
,
0011
0010
0001
0010
,
1100
0010
1000
0010
,
0010
0001
0100
0010
,
0001
0100
0001
0010
,
0100
0100
0010
0010
,
0002
0000
0000
0003
2000
0000
0000
3000
,
0200
0000
0000
0300
0020
0000
0000
0030
,
0002
0000
0000
0003
0200
0000
0000
0300
,
0002
0000
0000
0003
0200
0000
0300
0000
,
0100
0000
0010
0100
0010
0000
0100
1000
,
0000
0100
0000
0000
1001
0000
0110
0000
,
1001
0000
0000
0010
0100
0000
0100
0010
,
0000
0100
0000
0000
0010
0000
0001
0000
,
0100
0000
0000
0010
0100
0000
0010
0000
,
0100
0000
0000
0010
0001
0000
0001
0000
,
0001
0000
0000
0010
0010
0000
0010
0000
,
0001
0000
0000
0000
1000
1000
0001
0000
,
0001
0000
0001
0000
0010
0000
0100
0100
,
0000
0000
0100
0100
0000
0000
0010
0010
,
0000
0000
0000
0000
0000
0010
0000
0000
,
0001
0010
0001
0010
0000
0100
0100
0100
,
0000
0000
0000
0000
1000
1000
0000
0100
,
0000
0000
0000
0000
1000
1000
0000
0000
,
1000
1000
0010
0000
0010
0000
0000
0000
,
1000
1000
0100
0000
0100
0000
0000
0000
,
1000
1000
0010
0000
0010
0000
0100
0010
,
0000
0010
0010
0000
,
0100
0010
0001
0000
1000
0000
0010
0010
,
0000
0100
0000
0000
0010
0000
0100
0000
,
0100
0010
0010
0000
0010
0000
0010
0100
,
0000
0200
0000
0300
1000
0100
0010
0001
,
0000
0000
0000
0000
,
0100
0000
0000
0000
0100
0100
0010
0000
,
0010
0100
0100
0000
0010
0000
0010
0001
,
0000
0100
0000
0000
0000
0000
0000
0000
,
0100
0100
0000
0000
,
0010
0000
0010
0000
0000
0000
0001
0010
,
1000
1000
0000
0001
,
0010
0010
1000
1000
,
0001
0010
1000
0010
,
0100
0100
0001
1000
,
0010
0100
0010
0001
,
0010
0000
0001
0000
0001
0000
0000
0001
,
0100
0010
0001
0001
,
0000
0000
0000
0000
0000
0000
0000
0010
,
0001
0000
1000
0000
0100
0000
0010
0100
,
0010
0000
0100
0000
0010
0100
0010
0000
,
0100
0000
0001
0000
0100
0000
0010
0100
,
1000
0100
0001
0100
,
0010
0000
0001
0000
0010
0000
0001
0001
,
0100
0000
0010
0000
0100
0000
0010
0010
,
0010
0000
1000
0000
0000
0000
0001
0100
,
0010
1000
0010
0100
,
1001
0000
0110
0000
,
0110
0000
1001
0000
,
1000
1000
0001
0001
1000
1000
0001
0010
,
0000
0000
0001
0000
0001
0000
0100
0100
,
0010
0000
0100
0000
0100
0010
0100
0010
,
0001
0000
0000
0000
1000
0100
0000
0000
,
1000
0100
0010
0000
1000
0100
0010
0000
,
1000
0100
0010
0000
1000
0100
0010
0000
,
0100
0000
0010
0000
0010
0000
0100
0100
,
0000
0010
0010
0000
0100
0000
0010
0100
,
1000
0000
1000
0000
1000
0100
0000
0000
,
0001
0010
0001
0000
0001
0010
0000
0000
,
0010
0000
0000
0100
0000
0000
0010
0000
,
0000
0100
0000
0010
0000
0100
0001
0000
,
1000
0001
1000
0000
,
0001
1000
0001
0000
0010
1000
0000
0000
,
0001
0100
0000
0000
0001
0100
0000
0000
,
0002
0003
0010
0100
,
0002
0003
0010
0100
,
0010
1000
0010
0100
,
1000
0010
1000
0000
0001
0010
1000
0000
,
1000
1000
0001
0001
,
0100
0010
0001
0000
0100
0010
0001
0000
,
0001
0010
0010
1000
,
0100
0010
1000
0000
0100
0010
1000
0000
,
0000
1010
1010
0000
,
0010
0010
0001
0000
0000
0000
0100
0000
,
0010
1100
0011
0001
,
0010
0110
0011
1000
,
0100
0101
1100
0100
,
0001
0001
0010
0010
0001
0001
0010
0010
,
0001
0001
0010
0010
0001
0001
0010
0000
,
1000
0010
0100
0010
,
0001
0000
0100
0000
1000
0010
0001
0000
,
0010
0100
0000
0000
0100
0100
0000
0000
,
0100
0100
0000
0000
0010
0010
0000
0000
,
0010
0010
0000
0000
0001
0001
0000
0000
,
0001
0001
0000
0000
1000
1000
0000
0000
,
1000
1000
0000
0000
0010
0010
0000
0000
,
0010
0010
0000
0000
1000
1000
0000
0000
,
1000
1000
0000
0000
0010
0010
0000
0000
,
0010
0010
0000
0000
0001
0001
0000
0000
,
1000
0100
0010
0001
,
1000
0100
0010
0001
,
1000
0100
0010
0001
,
1000
0100
0010
0001
,
0000
0000
0001
0010
,
0100
0010
0100
1000
,
0100
0010
0100
0010
,
0010
0100
0100
0010
,
2000
3000
0200
0300
,
0002
0003
0020
0030
,
0200
0300
0002
0003
,
0020
0030
2000
3000
,
0020
0030
0002
0003
,
0200
0300
2000
3000
,
0020
0030
0002
0003
,
0020
0030
0200
0300
,
0010
0010
0010
0100
,
0100
0100
0001
0001
,
0001
1000
1000
1000
,
0001
0001
0001
0000
,
0100
0100
0110
0010
,
0010
0110
0010
0010
,
0110
0100
0011
0001
,
1000
0100
1000
0000
0001
0010
0001
0000
,
1000
0100
0100
0001
,
0010
0000
0010
0000
0010
0000
0001
0001
,
0000
0100
0100
0010
,
0010
0000
0000
0001
0001
0001
0100
0100
,
0010
0000
0010
0010
0000
0000
0000
0000
,
0100
0100
0000
0000
,
1000
1000
0000
0000
,
0100
0000
0100
0000
0000
0010
0100
0100
,
0000
0000
0000
0000
0100
0100
0000
0010
,
0000
0000
0000
0000
0001
0010
0000
0100
,
0000
0000
0000
0000
0010
0100
0000
1000
,
0000
0000
0000
0000
1000
0100
0000
0010
,
0000
0000
0000
0000
0010
0100
0000
1000
,
0000
0000
0000
0000
1000
0100
0000
0010
,
0000
0100
0010
0000
,
0010
1000
0100
0010
0001
1000
0100
0010
,
0001
0000
1001
0000
1001
0000
0110
0110
,
0000
0010
0000
0000
0100
0100
0000
2002
,
0000
3003
0000
0000
;

//---------------dance-single - Copied from Copied f----------------
#NOTES:
     dance-single:
     Copied from Copied f:
     Easy:
     1:
     0.327,0.614,0.116,0.242,0.000,535.000,32.000,67.000,0.000,0.000:
0200
0000
0000
0000
,
0000
0000
0000
0300
,
0020
0000
0000
0000
,
0000
0000
0000
0030
,
2000
3000
0200
0300
,
2000
3000
0200
0300
,
0020
0000
0030
1000
,
0200
0000
0300
0000
,
0010
0010
0010
0000
,
0100
0100
0100
0000
,
0010
0010
0010
0000
,
0100
0100
0100
0000
,
0001
0001
0001
0000
,
1000
1000
1000
0000
,
0001
0001
0001
0000
,
1000
0000
1000
0000
0100
0010
0100
0010
,
0100
0000
0010
0000
0010
0000
0000
0100
,
0000
0010
0000
0000
0010
0000
0010
0000
,
0010
0000
0100
0000
0100
0000
0000
0010
,
0000
0100
0000
0000
0001
0000
0000
0000
,
0010
0000
0010
0000
0010
0000
0000
0100
,
0000
0100
0000
0000
0001
0000
0001
0000
,
0001
0000
0100
0000
0100
0000
0000
0010
,
0000
0010
0000
0000
0010
0000
0000
0000
,
0010
0000
0001
0000
0010
0000
0000
0100
,
0000
0100
0000
0000
1000
0000
0100
0000
,
1000
0000
0100
0000
0100
0000
0000
0010
,
0000
0010
0000
0000
0010
0000
0000
0000
,
0010
0000
0100
0000
1000
0000
0000
0010
,
0000
0010
0000
0000
0010
0000
0010
0000
,
0010
0000
0100
0000
0010
0000
0000
0100
,
0000
0100
0000
0000
0100
0000
0100
0000
,
0100
0010
0100
0010
,
0100
0010
0100
0001
,
0010
0001
0010
0001
,
0100
0010
0100
0010
,
0100
0010
0100
1000
,
0100
1000
0100
1000
,
0100
1000
0100
0010
,
0100
0010
0100
0010
,
0100
1000
0100
1000
,
0100
1000
0100
0010
,
0100
0010
0100
0010
,
0001
0010
0001
0010
,
0001
0001
0001
1000
,
1000
1000
0100
0100
,
0100
0010
0010
0010
,
1000
1000
1000
0010
,
0010
0010
0100
0100
,
0100
0010
0001
0010
,
1000
0100
1000
0001
,
0010
0001
1000
0100
,
1000
0010
0001
0010
,
0100
0100
0100
0010
,
0010
0010
0100
0100
,
0100
0010
0010
0010
,
0002
0003
0020
0030
,
0002
0003
2000
3000
,
0200
0300
2000
3000
,
0020
0030
0200
0300
,
0100
0000
0100
0000
0000
0000
0010
0100
,
0000
0100
0000
0000
0100
0000
0010
0000
,
0100
0000
0000
0010
0100
0000
0100
0010
,
0000
0100
0000
0000
0010
0000
0010
0000
,
0100
0000
0010
0010
,
0100
0000
0001
0001
,
0001
0000
0010
0010
,
0010
0000
0010
0001
,
0001
0001
0010
0100
,
0000
0100
0000
0200
,
0000
0000
0300
0000
,
0001
0010
0001
0010
0000
0010
0001
0010
,
0000
0000
0000
0000
1000
1000
0000
1000
,
0000
0000
0000
0000
0010
0010
0000
0000
,
0010
0010
0010
0000
,
0100
0100
0100
0000
,
0010
0010
0010
0010
,
0000
0000
0010
0000
,
0100
0000
0100
0000
1000
0000
0000
0100
,
0000
0100
0000
0000
0010
0000
0100
0000
,
0100
0000
0010
0000
0010
0000
0000
0100
,
0000
0100
0000
0000
1000
0000
1000
0000
,
0020
0000
0030
0000
,
0100
0000
0100
0010
,
0010
0000
0100
0000
0010
0000
0000
0100
,
0000
0100
0000
0000
0000
0000
0000
0000
,
0100
0000
0100
0000
,
0010
0000
0010
0001
,
1000
0000
1000
0000
,
0010
0000
1000
0000
,
0001
0001
0010
0010
,
0100
0100
1000
1000
,
0100
0100
0010
0010
,
0001
0001
0010
0010
,
0100
0100
1000
1000
,
1001
0000
0110
0000
,
1001
0000
0110
0000
,
1001
0000
0011
0000
,
0011
0000
1100
0000
,
1100
0000
0011
0000
,
1100
0000
0011
0000
,
1100
0000
0001
0000
,
1000
0000
0010
0000
,
0100
0000
1000
0000
,
0100
0000
0010
0000
,
0100
0000
1000
0000
,
1000
0001
1000
0001
,
1000
0001
0010
0010
,
0010
0100
0100
0100
,
0001
0100
1100
0000
,
1100
0000
1100
0000
,
0011
0000
0011
0000
,
0100
0010
0010
0100
,
0000
0010
0010
0001
,
1000
1000
1000
0100
,
0101
0101
0101
0000
,
0010
0000
0000
0010
0000
0000
0010
0000
,
0000
0100
0000
0100
0000
0000
0000
0000
,
0010
0010
0010
0100
,
0001
0001
0010
0100
,
1000
1000
1000
1000
,
0200
0000
0000
0300
,
0002
0000
0000
0000
,
0000
0000
0000
0003
,
0020
0000
0000
0000
,
0000
0000
0000
0030
,
0202
0000
0000
0000
,
0000
0000
0000
0303
,
2020
0000
0000
0000
,
0000
0000
0000
3030
,
0100
0001
0010
0100
,
0010
1000
0010
0001
,
0010
0100
0010
1000
,
0100
0001
1000
0100
,
0001
0001
0000
0000
0001
0001
0000
0000
,
0010
0010
0000
0000
0010
0010
0000
0000
,
1000
0010
0100
0010
,
0001
0100
1000
0001
,
0020
0030
0200
0300
,
0020
0030
0200
0300
,
0020
0030
0002
0003
,
0020
0030
2000
3000
,
2000
3000
0020
0030
,
0020
0030
2000
3000
,
0200
0300
0020
0030
,
0020
0030
0002
0003
,
2020
3030
0202
0303
,
2200
3300
0022
0033
,
2002
3003
2002
3003
,
0200
0300
0002
0003
,
0200
0300
0020
0030
,
0200
0300
2000
3000
,
0002
0003
0200
0300
,
2200
3300
0022
0033
,
1000
0000
0100
0000
,
0001
0000
0010
0000
,
0100
0000
0001
0000
,
0010
0000
0100
0100
,
0010
0000
0001
0000
,
0100
0000
1000
0000
,
0010
0000
0001
0000
,
0010
0000
0100
0100
,
0010
0000
0010
0100
,
0000
0100
0010
0000
,
0010
0100
0000
0100
,
0001
0000
0001
0000
,
1000
0000
0010
0010
,
0010
0010
0100
0100
,
0100
0100
0010
0001
,
0001
1000
1000
0001
,
1001
0100
0100
0001
,
0010
0000
0000
0000
0100
0000
0000
0010
,
0000
0100
0100
0010
,
0010
0000
0001
0000
,
0010
0010
0010
0000
,
0000
0100
0100
0000
,
1000
1000
0000
0000
,
0100
0100
0000
0000
,
0100
0000
0100
0000
0100
0100
0000
0010
,
0000
0000
0000
0000
0010
0010
0000
0010
,
0000
0000
0000
0000
0100
0100
0000
0100
,
0000
0000
0000
0000
0010
0010
0000
0010
,
0000
0000
0000
0000
0010
0010
0000
0010
,
0000
0000
0000
0000
0100
0100
0000
0200
,
0000
0000
0000
0000
,
0300
0000
0000
0000
0100
1000
0100
1000
,
0000
0000
0000
0000
0000
0000
0000
0100
,
0000
0100
0000
0000
0100
0010
0200
0000
,
0000
0000
0000
0300
;
